(navigation image)
Home Audio Books & Poetry | Community Audio | Computers & Technology | Grateful Dead | Live Music Archive | Music, Arts & Culture | Netlabels | News & Public Affairs | Non-English Audio | Podcasts | Radio Programs | Spirituality & Religion | The Shady Trees
Search: Advanced Search
Anonymous User (login or join us)
Upload

Listen to audio

item image

Play / Download (help[help])

Whole directory

Lossless zip


All Files: HTTPS Torrent (2/0)

Resources

Bookmark

Rusted RootRusted Root Live at Camp Kee-Wamee on 2013-09-13 (September 13, 2013)


Collection: RustedRoot
Band/Artist: Rusted Root
Date: September 13, 2013 (check for other copies)
Venue: Camp Kee-Wamee
Location: Greenfield, MA

Source: DPA 4011 > V3 Digital + SBD > DR680 (24/48)
Lineage: SDHC Card > Sound Forge Pro 10.0 (Mix, Normalize, Fades) > CD Wav (tracking) > TLH > Flac (level 8)
Taped by: Brian V.
Transferred by: Brian V.
Keywords: Wormfest 2013


Description

*** This is a 24 bit recording, not intended for CD Burning ***

Rusted Root
2013-09-13
Wormtown Music Festival
Camp KeeWanee
Greenfield, MA
Main Stage

DPA 4011 > V3 Digital + SBD > DR680 (24/48)
SDHC Card > Sound Forge Pro 10.0 (Mix, Normalize, Fades) > CD Wav (tracking) > TLH > Flac (level 8)
TS at front corner of FOH (ROC)/ORTF/approx. 8' high

Taped and Transferred by Brian V.


Set 1

01. The Movement
02. Martyr
03. Lost In The Crowd
04. Cover Me Up
05. Food And Creative Love
06. Monkey Pants
07. Fortunate Freaks
08. Laugh As The Sun
09. Artificial Winter
10. Dangle
11. Voodoo
12. Send Me On My Way
13. encore break
14. Honky Tonk Woman
15. Ecstasy

Notes

Thanks to everyone that put Wormtown Music Festival together and for the tapers spot.
***Support Bands That Allow Taping/Trading***

shntool output
length expanded size cdr WAVE problems fmt ratio filename
4:19.093 74618924 B cxx -- ---xx flac 0.6608 rustedroot2013-09-13s1t01.flac
6:12.507 107281964 B cxx -- ---xx flac 0.6969 rustedroot2013-09-13s1t02.flac
6:15.067 108019244 B cxx -- ---xx flac 0.6831 rustedroot2013-09-13s1t03.flac
4:52.067 84115244 B cxx -- ---xx flac 0.7043 rustedroot2013-09-13s1t04.flac
5:28.773 94686764 B cxx -- ---xx flac 0.6851 rustedroot2013-09-13s1t05.flac
4:23.213 75805484 B cxx -- ---xx flac 0.6960 rustedroot2013-09-13s1t06.flac
5:15.293 90804524 B cxx -- ---xx flac 0.6992 rustedroot2013-09-13s1t07.flac
9:02.933 156364844 B cxx -- ---xx flac 0.6532 rustedroot2013-09-13s1t08.flac
5:09.240 89061164 B cxx -- ---xx flac 0.6366 rustedroot2013-09-13s1t09.flac
5:01.507 86833964 B cxx -- ---xx flac 0.6065 rustedroot2013-09-13s1t10.flac
8:48.707 152267564 B cxx -- ---xx flac 0.6668 rustedroot2013-09-13s1t11.flac
9:09.493 158254124 B cxx -- ---xx flac 0.6538 rustedroot2013-09-13s1t12.flac
2:01.147 34890284 B cxx -- ---xx flac 0.5586 rustedroot2013-09-13s1t13.flac
4:29.040 77483564 B cxx -- ---xx flac 0.6341 rustedroot2013-09-13s1t14.flac
16:41.723 288496172 B cxx -- ---xx flac 0.6647 rustedroot2013-09-13s1t15.flac
97:09.803 1678983828 B 0.6642 (15 files)

Individual Files

Audio Files 24bit Flac
The Movement 47.0 MB
Martyr 71.3 MB
Lost In The Crowd 70.4 MB
Cover Me Up 56.5 MB
Food And Creative Love 61.9 MB
Monkey Pants 50.3 MB
Fortunate Freaks 60.6 MB
Laugh As The Sun 97.4 MB
Artificial Winter 54.1 MB
Dangle 50.2 MB
Voodoo 96.8 MB
Send Me on My Way 98.7 MB
encore break 18.6 MB
Honky Tonk Woman 46.9 MB
Ecstasy 182.9 MB
Information FormatSize
rustedroot2013-09-13.dpa4011-sbd.flac24_files.xml Metadata [file]
rustedroot2013-09-13.dpa4011-sbd.flac24_meta.xml Metadata 4.2 KB
Other Files Archive BitTorrent Derivation Rules Text
rustedroot2013-09-13.dpa4011-sbd.flac24_archive.torrent 25.5 KB
rustedroot2013-09-13.dpa4011-sbd.flac24_rules.conf 7.0 B
rustedroot2013-09-13_2448.txt 3.3 KB
rustedroot2013-09-13_2448_FFP.txt 975.0 B

Be the first to write a review
Downloaded 33 times
Reviews